Hat picodrive bei sega cd emu probleme mit den audio tracks


djtwok

Still Fresh
Joined
Jul 11, 2010
Messages
10
Ich habe bei picodrive das problem das bei sega mega cd spielen nicht alle audio tracks eingebunden werden. Ich lade die .cue datei zb von sonic cd und es werden nur 16 audio tracks statt der gesamten (ca 25 oder 30) eingebunden. Das äussert sich so das dann zb beim boss keine musik läuft. Wenn man nach dem booten der emu ins mega cd menü wechselt sieht man auch das die "eingelegte cd" nur 16 tracks hat. Die cue datei bzw mp3s sind ok (wenn ich sie am pc mit kega abspiele bzw auf cd brenne und im mega cd abspiele) sind alle tracks da.
 

Jan-Nik

Active Member
Joined
Jan 5, 2009
Messages
534
Location
Germany
Re: Hat picodrive bei sega cd emu probleme mit den audio tra

<t>Ich glaub das liegt daran, dass in der cue-Datei die Groß- und Kleinschreibung anders ist als bei den MP3-Dateien. Öffne die CUE-Datei mal mit Notepad und änder die Dateinamen so dass sie exakt stimmen.</t>
 

djtwok

Still Fresh
Joined
Jul 11, 2010
Messages
10
Re: Hat picodrive bei sega cd emu probleme mit den audio tra

<t>Dachte ich auch erst aber ich finde da keinen Fehler.<br/>
Hier das Cue File:<br/>
FILE "Soniccd.iso" BINARY<br/>
TRACK 01 MODE1/2048<br/>
INDEX 01 00:00:00<br/>
POSTGAP 00:02:00<br/>
FILE "Soniccd 02.mp3" MP3<br/>
TRACK 02 AUDIO<br/>
PREGAP 00:02:00<br/>
INDEX 01 00:00:00<br/>
FILE "Soniccd 03.mp3" MP3<br/>
TRACK 03 AUDIO<br/>
INDEX 01 00:00:00<br/>
FILE "Soniccd 04.mp3" MP3<br/>
TRACK 04 AUDIO<br/>
INDEX 01 00:00:00<br/>
FILE "Soniccd 05.mp3" MP3<br/>
TRACK 05 AUDIO<br/>
INDEX 01 00:00:00<br/>
FILE "Soniccd 06.mp3" MP3<br/>
TRACK 06 AUDIO<br/>
INDEX 01 00:00:00<br/>
FILE "Soniccd 07.mp3" MP3<br/>
TRACK 07 AUDIO<br/>
INDEX 01 00:00:00<br/>
FILE "Soniccd 08.mp3" MP3<br/>
TRACK 08 AUDIO<br/>
INDEX 01 00:00:00<br/>
FILE "Soniccd 09.mp3" MP3<br/>
TRACK 09 AUDIO<br/>
INDEX 01 00:00:00<br/>
FILE "Soniccd 10.mp3" MP3<br/>
TRACK 10 AUDIO<br/>
INDEX 01 00:00:00<br/>
FILE "Soniccd 11.mp3" MP3<br/>
TRACK 11 AUDIO<br/>
INDEX 01 00:00:00<br/>
FILE "Soniccd 12.mp3" MP3<br/>
TRACK 12 AUDIO<br/>
INDEX 01 00:00:00<br/>
FILE "Soniccd 13.mp3" MP3<br/>
TRACK 13 AUDIO<br/>
INDEX 01 00:00:00<br/>
FILE "Soniccd 14.mp3" MP3<br/>
TRACK 14 AUDIO<br/>
INDEX 01 00:00:00<br/>
FILE "Soniccd 15.mp3" MP3<br/>
TRACK 15 AUDIO<br/>
INDEX 01 00:00:00<br/>
FILE "Soniccd 16.mp3" MP3<br/>
TRACK 16 AUDIO<br/>
INDEX 01 00:00:00<br/>
FILE "Soniccd 17.mp3" MP3<br/>
TRACK 17 AUDIO<br/>
INDEX 11 00:00:00<br/>
FILE "Soniccd 18.mp3" MP3<br/>
TRACK 18 AUDIO<br/>
INDEX 01 00:00:00<br/>
FILE "Soniccd 19.mp3" MP3<br/>
TRACK 19 AUDIO<br/>
INDEX 01 00:00:00<br/>
FILE "Soniccd 20.mp3" MP3<br/>
TRACK 20 AUDIO<br/>
INDEX 01 00:00:00<br/>
FILE "Soniccd 21.mp3" MP3<br/>
TRACK 21 AUDIO<br/>
INDEX 01 00:00:00<br/>
FILE "Soniccd 22.mp3" MP3<br/>
TRACK 22 AUDIO<br/>
INDEX 01 00:00:00<br/>
FILE "Soniccd 23.mp3" MP3<br/>
TRACK 23 AUDIO<br/>
INDEX 01 00:00:00<br/>
FILE "Soniccd 24.mp3" MP3<br/>
TRACK 24 AUDIO<br/>
INDEX 01 00:00:00<br/>
FILE "Soniccd 25.mp3" MP3<br/>
TRACK 25 AUDIO<br/>
INDEX 01 00:00:00<br/>
FILE "Soniccd 26.mp3" MP3<br/>
TRACK 26 AUDIO<br/>
INDEX 01 00:00:00<br/>
FILE "Soniccd 27.mp3" MP3<br/>
TRACK 27 AUDIO<br/>
INDEX 01 00:00:00<br/>
FILE "Soniccd 28.mp3" MP3<br/>
TRACK 28 AUDIO<br/>
INDEX 01 00:00:00<br/>
FILE "Soniccd 29.mp3" MP3<br/>
TRACK 29 AUDIO<br/>
INDEX 01 00:00:00<br/>
FILE "Soniccd 30.mp3" MP3<br/>
TRACK 30 AUDIO<br/>
INDEX 01 00:00:00<br/>
FILE "Soniccd 31.mp3" MP3<br/>
TRACK 31 AUDIO<br/>
INDEX 01 00:00:00<br/>
FILE "Soniccd 32.mp3" MP3<br/>
TRACK 32 AUDIO<br/>
INDEX 01 00:00:00<br/>
FILE "Soniccd 33.mp3" MP3<br/>
TRACK 33 AUDIO<br/>
INDEX 01 00:00:00<br/>
FILE "Soniccd 34.mp3" MP3<br/>
TRACK 34 AUDIO<br/>
INDEX 01 00:00:00<br/>
FILE "Soniccd 35.mp3" MP3<br/>
TRACK 35 AUDIO<br/>
INDEX 01 00:00:00<br/>
<br/>
<br/>
Die Groß/Kleinschreibung stimmt mit den Dateinamen überein.</t>
 

Jan-Nik

Active Member
Joined
Jan 5, 2009
Messages
534
Location
Germany
Re: Hat picodrive bei sega cd emu probleme mit den audio tra

<t>Komisch. Ich glaub dir bleibt nur noch übrig mal im englischen Forum zu Fragen wo sich notaz rumtreibt.</t>
 

Wizmaster

Newbie
Joined
Jul 16, 2009
Messages
122
Location
Niederoesterreich
LOCATION
Niederoesterreich
Re: Hat picodrive bei sega cd emu probleme mit den audio tra

<r>hmmmm<br/>
<br/>
also mein ordner heißt Sonic CD; darin befindet sich kein .Cue file;<br/>
die struktur sieht folgendermaßen aus:<br/>
<br/>
<B><s></s>Sonic CD.iso<e></e></B> (game)<br/>
<br/>
<B><s></s>Sonic CD 02.mp3<e></e></B> bis <B><s></s>Sonic CD 35.mp3<e></e></B> (mp3's)<br/>
<br/>
abstand und großschreibung beachten!!!<br/>
läuft alles wunderbar; hab alle sound's und effekte;<br/>
versuchs einfach mal ohne .Cue file...<br/>
<br/>
...</r>
 

djtwok

Still Fresh
Joined
Jul 11, 2010
Messages
10
Re: Hat picodrive bei sega cd emu probleme mit den audio tra

<t>Danke für den tipp hat mein Problem gelöst.</t>
 
Top